#TITLE:Ultrasex;
#SUBTITLE:;
#ARTIST:Mindless Self Indulgence;
#TITLETRANSLIT:;
#SUBTITLETRANSLIT:;
#ARTISTTRANSLIT:;
#CREDIT:;
#BANNER:ultrasex-bn.png;
#BACKGROUND:ultrasex-bg.png;
#LYRICSPATH:;
#CDTITLE:cd-yanah.PNG;
#MUSIC:Mindless Self Indulgence - Ultra Sex.mp3;
#OFFSET:-0.108;
#SAMPLESTART:89.000;
#SAMPLELENGTH:15.000;
#SELECTABLE:YES;
#BPMS:0.000=152.000,56.000=304.000,120.000=152.000,184.000=304.000,248.000=152.000,440.000=304.000;
#STOPS:;
#BGCHANGES:;
// cache tags:
#FIRSTBEAT:0.000;
#LASTBEAT:505.000;
#SONGFILENAME:Songs/nhac/ULTRASEX/FAGGOTFAGGOTFAGGOTFAGGOT.sm;
#HASMUSIC:1;
#HASBANNER:1;
#MUSICLENGTH:164.394;
// end cache tags

//---------------dance-single - Hold on for the ligh----------------
#NOTES:
     dance-single:
     Hold on for the ligh:
     Hard:
     12:
     1.000,1.000,1.000,0.833,0.377,1001.000,324.000,137.000,0.000,80.000:

1000
0100
0010
0001
0010
0100
1000
0000
,
0100
0001
1000
0010
1000
0001
0100
0000
,
0101
0010
0100
1000
0110
0010
0001
0101
,
0101
1000
0001
0100
1001
1000
0010
0000
,
0011
1000
0001
0100
0001
1000
0010
0000
,
1000
0100
0010
0001
0010
0100
1001
0000
,
0210
0310
0010
0010
1010
0010
0010
0210
,
0321
0131
0001
0001
0101
0001
0001
0021
,
1032
1013
1000
1000
1000
1000
1000
1020
,
2130
3110
0100
0100
0100
0100
0100
0000
,
0210
0310
0010
0010
1010
0010
0010
0210
,
0321
0131
0001
0001
0101
0001
0001
0021
,
1032
1013
1000
1000
1000
1000
1000
1020
,
2130
3100
0000
0000
0000
0000
0000
0000
,
1010
0000
0000
0000
1010
0000
0001
0000
0100
0000
1000
0100
0010
0000
0001
0000
,
0011
0000
0000
0000
0011
0000
0001
0000
0010
0000
0100
1000
0001
0000
0010
0000
,
0110
0001
0110
1000
0100
0010
0100
0001
,
1100
0001
1100
0000
0100
0001
1000
0010
,
1010
0000
0000
0000
1010
0000
0001
0000
0100
0000
1000
0100
0010
0000
0001
0000
,
0011
0000
0000
0000
0011
0000
0001
0000
0010
0000
0100
1000
0001
0000
0010
0000
,
0110
0001
0110
1000
0100
0010
0100
0001
,
1100
0000
0000
0000
,
0101
0000
0000
0000
0101
0000
1000
0000
0010
0000
0001
0010
0100
0000
1000
0000
,
1100
0000
0000
0000
1100
0000
1000
0000
0100
0000
0010
0001
1000
0000
0100
0000
,
0110
1000
0110
0001
0010
0100
0010
1000
,
0011
1000
0011
0000
0010
1000
0001
0100
,
0101
0000
0000
0000
0101
0000
1000
0000
0010
0000
0001
0010
0100
0000
1000
0000
,
1100
0000
0000
0000
1100
0000
1000
0000
0100
0000
0010
0001
1000
0000
0100
0000
,
0110
1000
0110
0001
0010
0100
0010
1000
,
0011
0000
0000
0000
,
0110
0010
0011
0010
0110
0010
1010
0010
,
0110
0100
1100
0100
0110
0100
0101
0100
,
1100
1000
1010
1000
1100
1000
1001
1000
,
0101
0100
0012
0213
0312
0213
0312
0213
,
1301
0001
0101
0001
1001
0001
0011
0001
,
1001
1000
1010
1000
1001
1000
1100
1000
,
1010
0010
0011
0010
1010
0010
0110
0010
,
2002
3223
2332
3223
,
2331
3001
0001
0001
0011
0001
0001
2001
,
3102
1103
0100
0100
1100
0100
0100
0102
,
0213
0311
0010
0010
0010
0010
0010
0012
,
1023
1031
2002
3003
2002
3003
2002
3003
,
2001
3001
0001
0001
0011
0001
0001
2001
,
3102
1103
0100
0100
1100
0100
0100
0102
,
0213
0311
0010
0010
0010
0010
0010
0012
,
1023
1030
0000
0000
0000
0000
0000
0000
,
0101
0000
0000
0000
0101
0000
1000
0000
0010
0000
0001
0010
0100
0000
1000
0000
,
1100
0000
0000
0000
1100
0000
1000
0000
0100
0000
0010
0001
1000
0000
0100
0000
,
0110
1000
0110
0001
0010
0100
0010
1000
,
0011
1000
0011
0000
0010
1000
0001
0100
,
0101
0000
0000
0000
0101
0000
1000
0000
0010
0000
0001
0010
0100
0000
1000
0000
,
1100
0000
0000
0000
1100
0000
1000
0000
0100
0000
0010
0001
1000
0000
0100
0000
,
0110
1000
0110
0001
0010
0100
0010
1000
,
0011
0000
0000
0000
,
1010
0000
0000
0000
1010
0000
0001
0000
0100
0000
1000
0100
0010
0000
0001
0000
,
0011
0000
0000
0000
0011
0000
0001
0000
0010
0000
0100
1000
0001
0000
0010
0000
,
0110
0001
0110
1000
0100
0010
0100
0001
,
1100
0001
1100
0000
0100
0001
1000
0010
,
1010
0000
0000
0000
1010
0000
0001
0000
0100
0000
1000
0100
0010
0000
0001
0000
,
0011
0000
0000
0000
0011
0000
0001
0000
0010
0000
0100
1000
0001
0000
0010
0000
,
0110
0001
0110
1000
0100
0010
0100
0001
,
1100
0000
0000
0000
,
1001
0001
0101
0001
1001
0001
0011
0001
,
1001
1000
1010
1000
1001
1000
1100
1000
,
1010
0010
0011
0010
1010
0010
0110
0010
,
1100
1000
0201
2301
3201
2301
3201
2301
,
3110
0100
1100
0100
0110
0100
0101
0100
,
0110
0010
0011
0010
0110
0010
1010
0010
,
0011
0001
0101
0001
0011
0001
1001
0001
,
2002
3223
2332
3223
,
1332
1003
1000
1000
1100
1000
1000
1002
,
2013
3011
0010
0010
0011
0010
0010
2010
,
3120
1130
0100
0100
0100
0100
0100
2100
,
3201
1301
2002
3003
2002
3003
2002
3003
,
1002
1003
1000
1000
1100
1000
1000
1002
,
2013
3011
0010
0010
0011
0010
0010
2010
,
3120
1130
0100
0100
0100
0100
0100
2100
,
3201
0000
0301
0000
1000
0001
1000
0001
1000
0001
1000
0001
1000
0001
1000
0001
,
0220
0300
0232
0300
,
2023
0030
3202
0003
,
0322
0003
0232
0300
,
2023
0000
0000
0000
0000
0000
0000
0000
0030
0000
0000
0000
0000
0000
0000
0000
3001
0010
0100
1000
0001
0010
0100
1000
0001
0010
0100
1000
0001
0010
0100
1000
,
0001
0010
0100
0000
1000
0100
0010
0001
1000
0100
0001
0010
1000
0000
1000
0010
,
0100
1000
0001
0000
0001
1000
0010
0100
1000
0010
0001
1000
0001
0000
0100
0000
,
1000
0100
0010
0000
0001
0010
0100
1000
0001
0010
1000
0100
0001
0000
0001
0100
,
0010
0001
1000
0000
1000
0001
0100
0010
0001
0100
1000
0001
1000
0000
0010
0000
,
1200
0000
0000
0000
0000
0000
0010
0000
1300
0000
0001
0010
1000
0000
0001
0000
2010
0000
0000
0000
0000
0000
0001
0000
3010
0000
0100
0001
0010
0000
0100
0000
,
1000
0001
0100
0010
1000
0001
0100
0010
1000
0010
0100
0001
1000
0010
0100
0001
,
2010
0000
0000
0000
0000
0000
0001
0000
3010
0000
0100
0001
0010
0000
0100
0000
0021
0000
0000
0000
0000
0000
0100
0000
0031
0000
1000
0100
0001
0000
1000
0000
,
0010
0100
1000
0001
0010
0100
1000
0001
0010
0001
1000
0100
0010
0001
1000
0100
,
0012
0000
0000
0000
0000
0000
0010
0000
1003
0000
0100
0001
0010
0000
1000
0000
0201
0000
0000
0000
0000
0000
0001
0000
0310
0000
1000
0100
0001
0000
0010
0000
,
1000
0100
1000
0100
0010
0100
0010
0001
0010
0100
1000
0100
0010
0001
0010
0100
,
1020
0000
0000
0000
0000
0000
1000
0000
0130
0000
0001
0010
1000
0000
0100
0000
0012
0000
0000
0000
0000
0000
0010
0000
1003
0000
0100
0001
0010
0000
1000
0000
,
0100
0001
0100
0001
1000
0001
1000
0010
1001
0000
0000
0000
0000
0000
0000
0000
,
1100
0100
0110
0010
0011
0001
1001
1000
,
1010
0010
0110
0100
1100
1000
1001
0001
,
0011
0010
0110
0100
1100
1000
1001
0001
,
0110
1001
0120
0132
0123
0132
0123
0132
,
1013
1000
1001
0001
0101
0100
0110
0010
,
0011
0001
1001
1000
1010
0010
0110
0100
,
0101
0001
1001
1000
1010
0010
0110
0100
,
2200
3322
2233
3322
,
1133
0100
0100
0100
0101
0100
0100
0120
,
1230
1310
1000
1000
1010
1000
1000
1200
,
2301
3101
0001
0001
0001
0001
0001
0201
,
0312
0113
0220
0330
0220
0330
0220
0330
,
0120
0130
0100
0100
0101
0100
0100
0120
,
1230
1310
1000
1000
1010
1000
1000
1200
,
2301
3101
0001
0001
0001
0001
0001
0201
,
0312
0013
0000
0000
0000
0000
0000
0000
,
1100
0000
0000
0000
1100
0000
0001
0000
0010
0000
1000
0100
0001
0000
0010
0000
,
0110
0000
0000
0000
0110
0000
0001
0000
1000
0000
0100
0001
1000
0000
0100
0000
,
0101
1000
0101
1000
0010
0100
0010
1000
,
0110
1000
0110
0001
1000
0100
1000
0001
,
0011
0000
0000
0000
0011
0000
1000
0000
0100
0000
0001
0010
1000
0000
0100
0000
,
0110
0000
0000
0000
0110
0000
1000
0000
0001
0000
0010
1000
0001
0000
0010
0000
,
1010
0001
1010
0001
0100
0010
0100
0001
,
0110
0001
0110
1000
0001
0010
0001
1000
,
1100
0000
0000
0000
1100
0000
0001
0000
0010
0000
1000
0100
0001
0000
0010
0000
,
0110
0000
0000
0000
0110
0000
0001
0000
1000
0000
0100
0001
1000
0000
0100
0000
,
0101
1000
0101
1000
0010
0100
0010
1000
,
0110
1000
0110
0001
1000
0100
1000
0001
,
0011
0000
0000
0000
0011
0000
1000
0000
0100
0000
0001
0010
1000
0000
0100
0000
,
0110
0000
0000
0000
0110
0000
1000
0000
0001
0000
0010
1000
0001
0000
0010
0000
,
1010
0001
1010
0001
0100
0010
0100
0001
,
0110
0001
0110
1000
0001
0010
0001
1000
,
0110
0110
0000
0000
;
